<?xml version="1.0" standalone="no"?>
<!DOCTYPE svg PUBLIC "-//W3C//DTD SVG 1.1//EN" "http://www.w3.org/Graphics/SVG/1.1/DTD/svg11.dtd" >
<svg>
<metadata>
Created by FontForge 20090622 at Thu Feb 21 15:56:43 2019
 By deploy user
Copyright SoftMaker Software GmbH 1995
</metadata>
<defs>
<font id="Gibson-Regular" horiz-adv-x="503" >
  <font-face 
    font-family="Gibson"
    font-weight="400"
    font-stretch="normal"
    units-per-em="1000"
    panose-1="0 0 0 0 0 0 0 0 0 0"
    ascent="800"
    descent="-200"
    x-height="459"
    cap-height="706"
    bbox="-174 -263 990 925"
    underline-thickness="40"
    underline-position="-127"
    unicode-range="U+0020-U+2215"
  />
<missing-glyph horiz-adv-x="700" 
d="M43 0v700h614v-700h-614zM614 43v614h-528v-614h528z" />
    <glyph glyph-name=".notdef" horiz-adv-x="700" 
d="M43 0v700h614v-700h-614zM614 43v614h-528v-614h528z" />
    <glyph glyph-name=".null" horiz-adv-x="0" 
 />
    <glyph glyph-name="nonmarkingreturn" horiz-adv-x="262" 
 />
    <glyph glyph-name="space" unicode=" " horiz-adv-x="262" 
 />
    <glyph glyph-name="exclam" unicode="!" horiz-adv-x="262" 
d="M146 212q-17 94 -33.5 196.5t-16.5 185.5q0 48 9 75q15 45 53 45q35 0 49 -45q9 -29 9 -74q0 -84 -16 -192q-22 -128 -32 -191h-22zM155 135q30 0 51.5 -20.5t21.5 -49.5q0 -31 -19.5 -52.5t-51.5 -21.5q-27 0 -49.5 20.5t-22.5 47.5q0 31 19.5 53.5t50.5 22.5z" />
    <glyph glyph-name="quotedbl" unicode="&#x22;" horiz-adv-x="428" 
d="M29 410q24 37 36 70.5t12 73.5v17q-29 14 -41 28.5t-12 44.5q0 26 21 48t47 22q46 0 70 -35q21 -31 21 -80t-24.5 -95t-64.5 -83l-44 -36zM257 409q24 31 36.5 71t12.5 81v10q-52 18 -52 69q0 28 18 50t45 22q48 0 71 -31.5t23 -80.5q0 -64 -39 -123q-35 -53 -93 -93z
" />
    <glyph glyph-name="numbersign" unicode="#" horiz-adv-x="504" 
d="M105 206h-97v67h107l26 193h-107v68h117l29 206h69l-29 -206h124l29 206h69l-29 -206h83v-67h-93l-27 -194h92v-67h-101l-29 -206h-69l29 206h-124l-29 -206h-69zM211 467l-27 -194h123l27 194h-123z" />
    <glyph glyph-name="dollar" unicode="$" horiz-adv-x="483" 
d="M207 799h58l-1 -85q66 -12 124 -37v-106q-33 21 -58 31q-31 13 -65 19v-228q95 -55 131 -108q31 -45 31 -98q0 -164 -162 -198v-89h-58v89q-32 0 -84.5 22.5t-81.5 45.5v116q32 -33 78.5 -59.5t87.5 -30.5v232q-80 50 -114 87q-52 57 -52 129q0 81 44 126q39 40 122 58
v84zM207 620q-30 -8 -48 -31.5t-18 -55.5q0 -30 20 -57q16 -21 46 -43v187zM329 176q0 33 -18 58q-13 18 -46 42v-190q32 14 48 35t16 55z" />
    <glyph glyph-name="percent" unicode="%" horiz-adv-x="764" 
d="M517 731l51 -25l-363 -732l-51 25zM726 232q0 -93 -25 -154q-35 -86 -115 -86q-70 0 -105 82q-26 61 -26 144q0 87 25 147q35 83 109 83t110 -75q27 -57 27 -141zM591 60q43 0 58 65q8 34 8 100q0 61 -9 96q-16 62 -58 62q-40 0 -56 -65q-9 -37 -9 -97q0 -85 16 -123
t50 -38zM268 497q0 -86 -25 -150q-35 -90 -107 -90q-80 0 -115 85q-24 59 -24 154q0 79 28 139q37 78 107 78q74 0 109 -75q27 -57 27 -141zM133 324q42 0 57 66q9 39 9 100t-9 96q-16 62 -58 62q-40 0 -56 -65q-9 -37 -9 -97q0 -65 8 -98q15 -64 58 -64z" />
    <glyph glyph-name="ampersand" unicode="&#x26;" horiz-adv-x="583" 
d="M80 528q0 72 52.5 114t126.5 42t118.5 -41.5t44.5 -115.5q0 -54 -36 -108t-86 -83l83 -106q35 47 63 96h103q-45 -91 -103 -172l124 -154h-118l-70 86q-51 -49 -95 -71q-53 -27 -116 -27q-72 0 -122.5 43t-50.5 114q0 66 53 123q33 35 109 85q-48 62 -64 100t-16 75z
M243 405l16 12q33 26 47 46q19 27 19 63q0 32 -18.5 51.5t-51.5 19.5q-32 0 -54 -21t-22 -54q0 -19 25 -68t39 -49zM215 285q-56 -36 -77 -56q-41 -39 -41 -83q0 -29 25 -48.5t55 -19.5q39 0 79 24q32 19 66 54z" />
    <glyph glyph-name="quotesingle" unicode="'" horiz-adv-x="205" 
d="M183 690q-48 -73 -48 -159v-4q52 -17 52 -66q0 -30 -21.5 -52.5t-50.5 -22.5q-43 0 -64.5 32.5t-21.5 78.5q0 65 40 123q32 46 94 94z" />
    <glyph glyph-name="parenleft" unicode="(" horiz-adv-x="322" 
d="M306 735q-76 -110 -109.5 -219.5t-33.5 -245.5q0 -130 34 -241t109 -211h-65q-91 119 -132 216q-49 115 -49 248q0 115 52 241q49 117 129 212h65z" />
    <glyph glyph-name="parenright" unicode=")" horiz-adv-x="322" 
d="M127 283q0 130 -34 237t-109 215h65q91 -118 132 -216q49 -117 49 -248q0 -115 -50.5 -236.5t-130.5 -216.5l-65 -1q75 105 109 218.5t34 247.5z" />
    <glyph glyph-name="asterisk" unicode="*" horiz-adv-x="483" 
d="M186 516l-73 47q-53 35 -53 59q0 40 42 40q22 0 55 -54q42 -68 49 -74q0 21 -15 84q-8 34 -8 52q0 19 8.5 31.5t27.5 12.5q18 0 27.5 -14.5t9.5 -33.5t-7 -42q-11 -38 -12.5 -44.5t-2.5 -19.5t-1 -25q11 10 50 75q30 50 62 50q16 0 24.5 -11t8.5 -27q0 -23 -21 -38
q-28 -16 -41.5 -23t-32.5 -21l-32 -24q19 0 83 16q32 8 50 8q19 0 33.5 -9t14.5 -27t-12 -29t-30 -11q-21 0 -52 8q-69 18 -87 18l96.5 -67.5t33.5 -40.5q0 -18 -9.5 -30.5t-27.5 -12.5q-23 0 -61 55l-51 78q0 -20 16 -89q8 -34 8 -54q0 -17 -10.5 -28.5t-27.5 -11.5
q-20 0 -28 15t-8 37q0 25 11 71.5t13 62.5q-3 -3 -49 -79q-34 -56 -63 -56q-36 0 -36 42q0 16 34 41l94 67l-135 -27q-17 0 -30.5 9.5t-13.5 26.5t10.5 29.5t27.5 12.5q23 0 67 -12.5t65 -12.5h9z" />
    <glyph glyph-name="plus" unicode="+" horiz-adv-x="644" 
d="M17 331h249v249h80v-249h251v-80h-251v-251h-80v251h-249v80z" />
    <glyph glyph-name="comma" unicode="," horiz-adv-x="222" 
d="M34 -161q48 65 48 152l-1 11q-27 12 -37.5 26.5t-10.5 43.5q0 27 20.5 49.5t47.5 22.5q42 0 67 -35q22 -31 22 -75q0 -66 -41 -124q-31 -44 -94 -93z" />
    <glyph glyph-name="hyphen" unicode="-" horiz-adv-x="342" 
d="M24 287h283v-98h-283v98z" />
    <glyph glyph-name="period" unicode="." horiz-adv-x="222" 
d="M104 136q33 0 55.5 -18t22.5 -50q0 -31 -19 -54t-49 -23q-33 0 -55.5 20.5t-22.5 54.5q0 27 20.5 48.5t47.5 21.5z" />
    <glyph glyph-name="slash" unicode="/" horiz-adv-x="301" 
d="M217 706h82l-235 -706h-82z" />
    <glyph glyph-name="zero" unicode="0" 
d="M246 719q112 0 169 -128q44 -99 44 -227q0 -87 -15 -159q-20 -96 -63 -150q-53 -67 -138 -67q-121 0 -178 139q-42 102 -42 244q0 134 45 227q58 121 178 121zM246 83q74 0 100 105q15 59 15 164q0 101 -17 166q-28 108 -100 108q-74 0 -104 -104q-19 -67 -19 -165
q0 -104 18 -167q30 -107 107 -107z" />
    <glyph glyph-name="one" unicode="1" 
d="M269 706h48v-706h-94v555l-137 -121l-40 84z" />
    <glyph glyph-name="two" unicode="2" 
d="M7 12l115 142q78 100 118 173q54 98 54 166q0 55 -34.5 91.5t-89.5 36.5q-30 0 -63 -14q-41 -18 -93 -61v107q32 30 76.5 48t88.5 18q99 0 158 -66t59 -166q0 -62 -35 -139q-29 -64 -82 -141q-37 -54 -90 -118h263v-89h-445v12z" />
    <glyph glyph-name="three" unicode="3" 
d="M54 129q38 -21 66 -32q39 -15 72 -15q57 0 91.5 31.5t34.5 87.5q0 72 -47 99q-30 17 -112 26v86q64 0 99 23q42 28 42 89q0 45 -30.5 72.5t-76.5 27.5q-36 0 -72 -12q-17 -6 -67 -29l1 98l76 25q43 13 79 13q81 0 134.5 -50.5t53.5 -131.5q0 -62 -29 -101
q-25 -33 -85 -63q57 -13 94 -60.5t37 -107.5q0 -96 -52 -155q-55 -63 -150 -63q-41 0 -79.5 10.5t-79.5 31.5v100z" />
    <glyph glyph-name="four" unicode="4" 
d="M5 248l345 471h33v-433h88v-83h-88v-203h-91v203h-287v45zM292 286l2 228q-33 -57 -95 -144l-61 -84h154z" />
    <glyph glyph-name="five" unicode="5" 
d="M49 137q38 -28 72.5 -41.5t78.5 -13.5q63 0 98.5 34.5t35.5 96.5q0 63 -40.5 96t-105.5 33q-29 0 -43.5 -1.5t-52.5 -7.5v373h317v-94h-226l-1 -184l36 1q98 0 155.5 -58.5t57.5 -158.5q0 -101 -63 -163t-166 -62q-37 0 -77 13.5t-76 34.5v102z" />
    <glyph glyph-name="six" unicode="6" 
d="M375 649q-84 -55 -138.5 -121.5t-97.5 -162.5q55 41 122 41q88 0 144 -59t56 -148q0 -95 -59.5 -153.5t-155.5 -58.5q-103 0 -165 75q-58 70 -58 177q0 113 64 235q60 114 152 195q15 13 38 28.5l44 29.5zM123 213q0 -58 35 -95t92 -37q50 0 83 31t33 82q0 53 -31 87
t-83 34q-39 0 -70 -17q-26 -14 -57 -46q-2 -10 -2 -21.5v-17.5z" />
    <glyph glyph-name="seven" unicode="7" 
d="M19 706h434v-23l-300 -696l-89 46l259 580h-304v93z" />
    <glyph glyph-name="eight" unicode="8" 
d="M38 512q0 83 58 145t140 62q86 0 148.5 -57.5t62.5 -143.5q0 -104 -89 -156q51 -22 75.5 -65t24.5 -101q0 -87 -63 -148t-150 -61q-91 0 -156.5 61.5t-65.5 152.5q0 113 106 161q-91 46 -91 150zM246 404q48 0 77 32t29 81q0 48 -30 79t-78 31t-81 -33t-33 -82
q0 -47 33.5 -77.5t82.5 -30.5zM242 82q53 0 87.5 32.5t34.5 85.5q0 52 -35 86t-87 34t-89 -33t-37 -84q0 -52 36.5 -86.5t89.5 -34.5z" />
    <glyph glyph-name="nine" unicode="9" 
d="M107 57q80 48 140 121t96 163q-55 -41 -124 -41q-87 0 -142 60t-55 148q0 95 60.5 152.5t156.5 57.5q100 0 162 -76q58 -71 58 -174q0 -114 -64 -236q-60 -115 -153 -195q-16 -14 -39 -30l-42 -28zM231 390q33 0 70.5 16.5t55.5 42.5l3 42q0 58 -35 96t-91 38
q-54 0 -85.5 -34.5t-31.5 -88.5q0 -48 33 -80t81 -32z" />
    <glyph glyph-name="colon" unicode=":" horiz-adv-x="262" 
d="M164 476q27 0 45.5 -22.5t18.5 -51.5t-19.5 -50.5t-47.5 -21.5q-33 0 -55.5 20.5t-22.5 52.5q0 36 22.5 54.5t58.5 18.5zM152 137q28 0 52 -17.5t24 -45.5v-21q0 -23 -23.5 -42.5t-47.5 -19.5q-31 0 -53 20t-22 50q0 31 19.5 53.5t50.5 22.5z" />
    <glyph glyph-name="semicolon" unicode=";" horiz-adv-x="262" 
d="M157 475q29 0 49 -20t20 -49q0 -31 -21 -52t-53 -21q-26 0 -48 20t-22 46q0 32 21 54t54 22zM83 -159q26 42 37.5 79.5t11.5 83.5q-26 10 -39 27t-13 44q0 28 20 49t49 21q43 0 66 -32.5t23 -77.5q0 -66 -40 -123q-32 -46 -94 -93z" />
    <glyph glyph-name="less" unicode="&#x3c;" horiz-adv-x="551" 
d="M527 446l-425 -193l425 -193v-68l-508 230v62l508 230v-68z" />
    <glyph glyph-name="equal" unicode="=" horiz-adv-x="644" 
d="M-32 239h666v-78h-666v78zM-32 420h666v-78h-666v78z" />
    <glyph glyph-name="greater" unicode="&#x3e;" horiz-adv-x="551" 
d="M25 60l425 193l-425 193v68l508 -230v-62l-508 -230v68z" />
    <glyph glyph-name="question" unicode="?" horiz-adv-x="322" 
d="M203 546q0 36 -24.5 55t-62.5 19l-18 -1l62 99q70 -19 105 -53q42 -40 42 -108q0 -56 -36.5 -118l-71.5 -118q-39 -69 -39 -126l-16 -10q-22 23 -34.5 48.5t-12.5 54.5q0 45 53 124t53 134zM89 68q0 26 22.5 47.5t49.5 21.5q30 0 51 -21t21 -51q0 -35 -21.5 -54.5
t-57.5 -19.5q-27 0 -46 24t-19 53z" />
    <glyph glyph-name="at" unicode="@" horiz-adv-x="1015" 
d="M529 500q-64 0 -110 -67q-41 -60 -41 -128q0 -41 22 -69t62 -28q61 0 107 71q42 65 42 129q0 35 -23.5 63.5t-58.5 28.5zM662 556h69l-73 -246q-7 -26 -12.5 -49.5t-5.5 -30.5q0 -12 2.5 -20.5t18.5 -8.5q60 0 104 80q38 70 38 136q0 117 -80 187.5t-199 70.5
q-132 0 -218 -93t-86 -227q0 -132 89 -222t223 -90q70 0 134.5 30t107.5 84h67q-49 -82 -132 -129t-180 -47q-160 0 -271 110t-111 270q0 155 110.5 265.5t266.5 110.5q139 0 239 -85q105 -90 105 -227q0 -101 -68 -191q-74 -98 -171 -98q-28 0 -46 17t-18 46
q-26 -28 -57.5 -45.5t-64.5 -17.5q-64 0 -105.5 47.5t-41.5 112.5q0 105 62 187q67 89 169 89q39 0 68.5 -20.5t46.5 -57.5z" />
    <glyph glyph-name="A" unicode="A" horiz-adv-x="644" 
d="M244 706h86l304 -706h-112l-95 224h-263l-86 -224h-110zM387 316l-98 248l-91 -248h189z" />
    <glyph glyph-name="B" unicode="B" horiz-adv-x="544" 
d="M46 706h154q106 0 164 -40q69 -47 69 -149q0 -106 -95 -148q77 -13 117.5 -54.5t40.5 -118.5q0 -106 -83 -156q-67 -40 -181 -40h-186v706zM393 194q0 55 -28 81q-33 31 -131 31l-90 -1v-212h6l83 -2q92 0 126 27.5t34 75.5zM191 402q67 0 98 20q41 26 41 89q0 47 -31 72
t-80 25h-75v-206h47z" />
    <glyph glyph-name="C" unicode="C" horiz-adv-x="644" 
d="M602 552q-64 37 -107 52q-54 19 -117 19q-114 0 -190.5 -78.5t-76.5 -192.5q0 -116 73 -192t188 -76q61 0 122.5 20t117.5 56l-1 -112q-76 -34 -118 -46q-59 -17 -125 -17q-159 0 -261 105t-102 265q0 153 106.5 259.5t258.5 106.5q71 0 120 -13t112 -48v-108z" />
    <glyph glyph-name="D" unicode="D" horiz-adv-x="704" 
d="M38 706h201q178 0 287 -79q123 -89 123 -262q0 -150 -81 -245.5t-228 -112.5q-40 -4 -73.5 -5.5t-86.5 -1.5h-142v706zM264 95q126 0 200 63q80 68 80 191q0 125 -73 192t-199 67h-134v-513h126z" />
    <glyph glyph-name="E" unicode="E" horiz-adv-x="483" 
d="M50 706h380v-94h-278v-214h271v-94h-271v-212h290v-92h-392v706z" />
    <glyph glyph-name="F" unicode="F" horiz-adv-x="442" 
d="M52 706h364v-95h-264v-188h264v-92h-264v-331h-100v706z" />
    <glyph glyph-name="G" unicode="G" horiz-adv-x="704" 
d="M616 540q-60 31 -90 44q-86 38 -161 38q-107 0 -182.5 -77.5t-75.5 -185.5q0 -119 77.5 -197.5t195.5 -78.5q30 0 52.5 4.5t91.5 27.5v146h-130v87h222v-304q-76 -30 -123 -42q-63 -16 -129 -16q-157 0 -259.5 107.5t-102.5 264.5q0 154 105 258t259 104q68 0 130 -20
q44 -14 120 -53v-107z" />
    <glyph glyph-name="H" unicode="H" horiz-adv-x="685" 
d="M39 706h100v-306h357v306h101v-706h-101v306h-357v-306h-100v706z" />
    <glyph glyph-name="I" unicode="I" horiz-adv-x="241" 
d="M63 706h99v-706h-99v706z" />
    <glyph glyph-name="J" unicode="J" horiz-adv-x="241" 
d="M-54 -108q67 0 87 36q14 25 14 98v680h100v-662q0 -128 -29 -179q-41 -71 -159 -71l-18 1l-25 100z" />
    <glyph glyph-name="K" unicode="K" horiz-adv-x="624" 
d="M43 706h103v-313l264 313h131l-288 -335l390 -371h-147l-350 339v-339h-103v706z" />
    <glyph glyph-name="L" unicode="L" horiz-adv-x="483" 
d="M50 706h101v-611h313v-95h-414v706z" />
    <glyph glyph-name="M" unicode="M" horiz-adv-x="745" 
d="M37 706h90l222 -292l220 292h88v-706h-99v489q0 18 0.5 34.5t4.5 36.5l-207 -289h-17l-207 289q5 -50 5 -89v-471h-100v706z" />
    <glyph glyph-name="N" unicode="N" horiz-adv-x="745" 
d="M37 706h82l356 -429q44 -52 58 -71q8 -11 31 -47q0 31 -3 93t-3 93v361h99v-706h-83l-353 427q-48 59 -90 123q0 -31 2.5 -83.5t2.5 -63.5v-403h-99v706z" />
    <glyph glyph-name="O" unicode="O" horiz-adv-x="805" 
d="M367 720q163 0 270 -107t107 -269q0 -148 -110 -253t-259 -105q-156 0 -267.5 104t-111.5 258q0 158 106 265t265 107zM376 84q108 0 187 78t79 187q0 115 -77.5 193.5t-191.5 78.5q-113 0 -193.5 -77.5t-80.5 -189.5q0 -113 81.5 -191.5t195.5 -78.5z" />
    <glyph glyph-name="P" unicode="P" 
d="M48 706h229q92 0 149.5 -52.5t57.5 -142.5q0 -96 -52 -144q-42 -39 -126 -51q-49 -7 -156 -7v-309h-102v706zM248 405q66 0 97 19q40 25 40 87q0 54 -38 79q-33 21 -90 21h-107v-206h98z" />
    <glyph glyph-name="Q" unicode="Q" horiz-adv-x="785" 
d="M621 -40q33 0 57 3.5t51 12.5l-98 -108q-83 17 -162 44q-59 20 -157 62.5t-118 52.5q-59 30 -96 67q-44 44 -72 111q-12 30 -20 65.5t-8 68.5q0 158 108.5 269.5t265.5 111.5q149 0 261 -108t112 -256q0 -133 -70 -224t-198 -125q33 -18 74 -32.5t70 -14.5zM364 78
q117 0 198.5 77.5t81.5 194.5q0 113 -81.5 190.5t-195.5 77.5q-110 0 -188.5 -80.5t-78.5 -192.5q0 -105 79 -186t185 -81z" />
    <glyph glyph-name="R" unicode="R" horiz-adv-x="563" 
d="M46 706h135q112 0 176 -37q81 -47 81 -151q0 -64 -28.5 -110t-86.5 -69q50 -29 97 -95q22 -31 77 -126q48 -83 80 -118h-132l-57 103q-65 107 -89 135q-63 73 -137 73h-14v-311h-102v706zM223 405q49 0 80.5 27.5t31.5 76.5q0 61 -50 84q-36 17 -104 17h-33v-205h75z" />
    <glyph glyph-name="S" unicode="S" horiz-adv-x="483" 
d="M35 173q59 -47 88 -63q54 -31 104 -31q44 0 71 30t27 74q0 54 -74 107l-138 95q-74 65 -74 150q0 83 54.5 134.5t138.5 51.5q42 0 81 -12q29 -9 76 -31v-109q-37 24 -70 38q-43 18 -78 18q-45 0 -72.5 -23.5t-27.5 -68.5q0 -46 74 -99q138 -98 139 -99q75 -68 75 -149
q0 -90 -56.5 -145.5t-146.5 -55.5q-50 0 -101 21q-38 15 -90 50v117z" />
    <glyph glyph-name="T" unicode="T" horiz-adv-x="563" 
d="M-28 706h562v-94h-229v-612h-103v612h-230v94z" />
    <glyph glyph-name="U" unicode="U" horiz-adv-x="704" 
d="M37 706h100v-417q0 -96 45.5 -147.5t140.5 -51.5q107 0 153 58q42 52 42 162v396h100v-442q0 -136 -79.5 -207.5t-217.5 -71.5q-141 0 -212.5 81.5t-71.5 224.5v415z" />
    <glyph glyph-name="V" unicode="V" horiz-adv-x="604" 
d="M78 706l165 -406l31 -81l61 163l63 162l65 162h111l-285 -706h-33l-286 706h108z" />
    <glyph glyph-name="W" unicode="W" horiz-adv-x="1026" 
d="M65 706l63 -167q41 -106 63 -169q36 -101 57 -170q29 110 84 255l97 251h84l144 -368l25 -66q14 -37 20 -67q22 73 54 165l62 172.5l61 163.5h111l-268 -706h-33l-77 184q-56 135 -75 185q-31 81 -66 188q-26 -81 -64 -187q-21 -59 -70 -185l-72 -185h-33l-283 706h116z
" />
    <glyph glyph-name="X" unicode="X" horiz-adv-x="704" 
d="M259 358l-273 348h129l208 -266l213 266h129l-276 -348l284 -358h-128l-222 277l-226 -277h-132z" />
    <glyph glyph-name="Y" unicode="Y" horiz-adv-x="583" 
d="M94 706l168 -236l168 236h124l-243 -333v-373h-101v373l-239 333h123z" />
    <glyph glyph-name="Z" unicode="Z" horiz-adv-x="624" 
d="M400 610h-402v96h593l-440 -612h421v-94h-613z" />
    <glyph glyph-name="bracketleft" unicode="[" horiz-adv-x="322" 
d="M71 735h235v-86h-139v-746h139v-85h-235v917z" />
    <glyph glyph-name="backslash" unicode="\" horiz-adv-x="278" 
d="M-17 737h66l246 -756h-67z" />
    <glyph glyph-name="bracketright" unicode="]" horiz-adv-x="322" 
d="M-15 -96h139v746h-139v85h235v-917h-235v86z" />
    <glyph glyph-name="asciicircum" unicode="^" horiz-adv-x="0" 
d="M-85 894h166l88 -123h-88l-84 70l-82 -70h-89z" />
    <glyph glyph-name="underscore" unicode="_" horiz-adv-x="556" 
d="M0 -125v50h556v-50h-556z" />
    <glyph glyph-name="grave" unicode="`" horiz-adv-x="0" 
d="M-15 670l68 -159h-68l-111 159h111z" />
    <glyph glyph-name="a" unicode="a" horiz-adv-x="403" 
d="M229 292q0 41 -15 64q-19 28 -58 28q-33 0 -76 -23q-33 -17 -67 -46l1 95q34 27 77 43.5t84 16.5q86 0 121 -64q26 -48 26 -142q0 -22 -2 -72.5t-2 -52.5q0 -21 3 -39t16 -21l47 16v-68q-30 -18 -56 -28.5t-54 -10.5q-13 0 -25.5 11.5t-18.5 24.5q-31 -16 -51 -24
q-30 -12 -55 -12q-61 0 -95 29q-37 32 -37 93q0 65 89 112q49 26 148 54v16zM229 219q-56 -14 -88 -32q-53 -30 -53 -71q0 -22 17 -39t40 -17q20 0 43 10q28 14 41 20v129z" />
    <glyph glyph-name="b" unicode="b" 
d="M39 706h95v-280q57 44 126 44q87 0 143 -67q53 -63 53 -153q0 -122 -67 -192t-190 -70q-32 0 -63 6t-97 30v682zM206 80q68 0 112 46t44 114q0 62 -30 101q-33 43 -93 43q-34 0 -68 -16q-8 -4 -37 -21v-259q38 -8 72 -8z" />
    <glyph glyph-name="c" unicode="c" horiz-adv-x="403" 
d="M377 339q-22 17 -60 29t-68 12q-70 0 -106.5 -45t-36.5 -116q0 -63 40 -102t103 -39q36 0 67 12t68 35v-95q-31 -22 -67 -32t-76 -10q-100 0 -165.5 71.5t-65.5 172.5q0 103 65.5 170.5t168.5 67.5q34 0 68 -10q8 -2 65 -23v-98z" />
    <glyph glyph-name="d" unicode="d" 
d="M326 706h95v-706h-95l-1 25q-22 -16 -53.5 -26.5t-58.5 -10.5q-102 0 -158 73q-51 66 -51 171q0 102 53 168q58 72 158 72q28 0 55 -8.5t56 -24.5v267zM326 354q-37 37 -93 37q-67 0 -100.5 -47t-33.5 -117q0 -64 33 -107q37 -48 100 -48q21 0 50 9.5t44 22.5v250z" />
    <glyph glyph-name="e" unicode="e" horiz-adv-x="463" 
d="M103 216q0 -63 40.5 -100.5t107.5 -37.5q49 0 101 24q9 4 57 30v-93q-54 -26 -82 -36q-44 -15 -89 -15q-106 0 -169 70.5t-63 178.5q0 92 56.5 162t147.5 70q104 0 159 -77q48 -67 48 -176h-314zM325 285q-10 45 -37 72.5t-71 27.5q-45 0 -74 -27t-38 -73h220z" />
    <glyph glyph-name="f" unicode="f" horiz-adv-x="262" 
d="M-13 459h70q0 124 22 174q36 82 143 82q18 0 39.5 -5.5t42.5 -14.5v-86q-35 14 -49 17.5t-30 3.5q-45 0 -63 -37q-13 -27 -13 -77l2 -57h90v-78h-90v-381h-94v381h-70v78z" />
    <glyph glyph-name="g" unicode="g" horiz-adv-x="423" 
d="M36 69q0 21 16 37q10 10 60 33q-53 28 -78 61q-30 39 -30 95q0 78 51.5 124t130.5 46q34 0 103 -3t104 -3v-82h-69q14 -19 21.5 -41t7.5 -44q0 -100 -110.5 -149.5t-110.5 -67.5q0 -20 66 -36q92 -22 123 -39q67 -36 67 -106q0 -79 -66 -121q-56 -36 -139 -36
q-81 0 -139 31q-74 39 -74 113q0 52 27.5 85t79.5 45q-17 7 -29 23t-12 35zM180 202q41 0 63.5 27t22.5 69q0 39 -25 66t-65 27q-37 0 -60.5 -28t-23.5 -66q0 -43 23 -69t65 -26zM171 -182q48 0 80 11q49 17 49 55q0 39 -39 56q-27 12 -73 12q-54 0 -82 -9q-48 -16 -48 -57
q0 -36 40 -54q31 -14 73 -14z" />
    <glyph glyph-name="h" unicode="h" 
d="M39 706h95v-294q41 30 61 40q33 16 72 16q86 0 126 -62q34 -52 34 -143v-263h-94l-1 252q0 82 -22 105t-69 23q-20 0 -47 -10.5t-60 -39.5v-330h-95v706z" />
    <glyph glyph-name="i" unicode="i" horiz-adv-x="222" 
d="M54 459h95v-459h-95v459zM103 622q24 0 39.5 -17.5t15.5 -41.5q0 -26 -18 -41t-44 -15q-23 0 -38.5 16.5t-15.5 40.5q0 25 17.5 41.5t43.5 16.5z" />
    <glyph glyph-name="j" unicode="j" horiz-adv-x="222" 
d="M49 459h95l-1 -529q0 -72 -26 -112.5t-91 -77.5l-57 78q43 17 61.5 49t18.5 80v512zM106 623q20 0 34.5 -18.5t14.5 -39.5q0 -23 -16.5 -40.5t-39.5 -17.5q-24 0 -42.5 15.5t-18.5 40.5q0 29 18.5 44.5t49.5 15.5z" />
    <glyph glyph-name="k" unicode="k" horiz-adv-x="483" 
d="M40 706h95v-451l180 204h123l-198 -219l250 -240h-139l-216 214v-214h-95v706z" />
    <glyph glyph-name="l" unicode="l" horiz-adv-x="222" 
d="M54 706h94v-706h-94v706z" />
    <glyph glyph-name="m" unicode="m" horiz-adv-x="764" 
d="M26 459h95v-40q34 24 60 35q33 14 69 14q41 0 71.5 -17t58.5 -52q33 33 70.5 51t80.5 18q86 0 124 -71q29 -54 29 -148v-249h-95v261q0 68 -23 95q-19 23 -56 23q-31 0 -58 -15q-14 -8 -49 -36v-328h-95v251q0 71 -20 99.5t-56 28.5q-31 0 -58 -13t-53 -37v-329h-95v459z
" />
    <glyph glyph-name="n" unicode="n" 
d="M39 459h95v-40q29 23 60 36t65 13q102 0 140 -68q28 -50 28 -162v-238h-94v245q0 66 -12 93q-19 42 -77 42q-28 0 -59 -15q-25 -12 -51 -34v-331h-95v459z" />
    <glyph glyph-name="o" unicode="o" horiz-adv-x="544" 
d="M254 470q99 0 168.5 -72.5t69.5 -172.5q0 -101 -74 -169t-175 -68q-95 0 -167 72t-72 167q0 106 72 174.5t178 68.5zM246 78q64 0 110 44t46 107q0 62 -45 107t-107 45q-65 0 -111.5 -44.5t-46.5 -109.5q0 -59 47 -104t107 -45z" />
    <glyph glyph-name="p" unicode="p" 
d="M39 459h96v-27q23 19 53 28.5t63 9.5q97 0 153 -71q52 -66 52 -166q0 -104 -50 -171q-56 -75 -156 -75q-65 0 -115 36v-281h-96v717zM233 72q64 0 98 50q30 44 30 111q0 63 -31 106q-35 48 -97 48q-24 0 -51 -9t-47 -24v-249q31 -18 50 -25.5t48 -7.5z" />
    <glyph glyph-name="q" unicode="q" horiz-adv-x="483" 
d="M329 459h95v-717h-95v277q-51 -31 -103 -31q-104 0 -164 70q-56 65 -56 171q0 99 51 167q56 74 152 74q68 0 120 -39v28zM329 354q-19 12 -47.5 22.5t-49.5 10.5q-63 0 -97.5 -43t-34.5 -108q0 -71 30 -114q35 -51 104 -51q49 0 95 34v249z" />
    <glyph glyph-name="r" unicode="r" horiz-adv-x="363" 
d="M46 459h95v-72q15 28 51 54.5t66 26.5q31 0 59 -14q18 -9 51 -34l-57 -86q-18 17 -31 25q-21 13 -38 13q-56 0 -82 -57q-19 -42 -19 -106v-209h-95v459z" />
    <glyph glyph-name="s" unicode="s" horiz-adv-x="363" 
d="M18 134q40 -27 69 -40q43 -20 78 -20q24 0 39 9t15 32q0 31 -98 91t-98 135q0 60 38.5 94.5t98.5 34.5q33 0 66 -9.5t64 -27.5l1 -99q-24 19 -62 34.5t-66 15.5q-18 0 -31.5 -9t-13.5 -27q0 -32 98.5 -91.5t98.5 -134.5q0 -60 -40.5 -97.5t-101.5 -37.5q-40 0 -77.5 11.5
t-77.5 33.5v102z" />
    <glyph glyph-name="t" unicode="t" horiz-adv-x="301" 
d="M138 578v-119h128v-78l-129 -1q0 -41 -2 -135.5t-2 -101.5q0 -26 13.5 -43t39.5 -17q25 0 61 16q28 12 56 31v-101q-54 -23 -67 -28q-37 -13 -71 -13q-67 0 -100 51q-28 43 -28 114q0 39 2 130.5t2 97.5h-56z" />
    <glyph glyph-name="u" unicode="u" 
d="M39 459h94v-233q0 -73 8 -97q17 -50 75 -50q62 0 115 51v329h96v-459h-96l-1 40q-58 -49 -132 -49q-87 0 -127 66q-32 53 -32 147v255z" />
    <glyph glyph-name="v" unicode="v" horiz-adv-x="442" 
d="M81 459l117 -283l112 283h105l-202 -459h-30l-205 459h103z" />
    <glyph glyph-name="w" unicode="w" horiz-adv-x="724" 
d="M65 459l73 -180q29 -73 41 -110l109 290l78 -1l56 -148l53 -141q26 74 55 146l59 144h104l-199 -459h-41l-68 156q-40 94 -58 160q-27 -75 -62 -159l-66 -157h-42l-193 459h101z" />
    <glyph glyph-name="x" unicode="x" horiz-adv-x="523" 
d="M172 234l-181 225h120l123 -157l124 157h124l-184 -225l196 -234h-123l-137 164l-137 -164h-123z" />
    <glyph glyph-name="y" unicode="y" horiz-adv-x="463" 
d="M82 459l137 -304l132 304h105l-322 -717h-105l139 312l-191 405h105z" />
    <glyph glyph-name="z" unicode="z" horiz-adv-x="442" 
d="M242 370h-218v89h383l-245 -373h239v-86h-404z" />
    <glyph glyph-name="braceleft" unicode="{" horiz-adv-x="334" 
d="M42 294q55 0 72 67q8 32 8 112l-1 43q0 94 11 131q22 75 93 75h67v-65h-44q-27 0 -36.5 -25t-9.5 -57v-113l-1 -57q0 -43 -23 -84q-26 -46 -64 -56q55 -18 75 -83q13 -43 13 -118l-1 -87q0 -45 5 -66q10 -42 42 -42h44v-65h-67q-47 0 -74.5 40t-27.5 89v171q0 47 -17 83
q-22 47 -64 47v60z" />
    <glyph glyph-name="bar" unicode="|" horiz-adv-x="260" 
d="M94 737h73v-756h-73v756z" />
    <glyph glyph-name="braceright" unicode="}" horiz-adv-x="334" 
d="M292 234q-41 0 -63 -47q-18 -38 -18 -83v-171q0 -50 -25 -87q-29 -42 -77 -42h-67v65h44q31 0 41 41q5 21 5 67l-1 86q0 76 13 118q20 65 76 82q-38 11 -63 55t-25 86v171q0 34 -7 52q-11 30 -39 30h-44v65h67q64 0 88 -64q16 -42 16 -127q0 -16 -0.5 -30.5t-0.5 -27.5
q0 -79 8 -111q17 -68 72 -68v-60z" />
    <glyph glyph-name="asciitilde" unicode="~" horiz-adv-x="0" 
d="M-63 898q25 0 68 -24t66 -24q14 0 26 15t16 31l59 -22q-12 -41 -33 -64q-26 -29 -65 -29q-25 0 -57 15q-71 33 -84 33q-16 0 -30 -18q-8 -11 -17 -33l-57 26q17 43 39 65q29 29 69 29z" />
    <glyph glyph-name="c128" horiz-adv-x="520" 
d="M419 500l-73 -130h158v-53h-187l-75 -134h262v-52h-290l-87 -155l-47 27l71 128h-151v52h181l74 134h-255v53h285l87 157z" />
    <glyph glyph-name="c129" horiz-adv-x="675" 
d="M508 388q54 0 94 -39t40 -94q0 -54 -37.5 -95t-90.5 -41q-55 0 -104 32q-17 11 -85 71q-68 -60 -85 -71q-49 -32 -105 -32q-53 0 -91 42t-38 95q0 54 41 93t95 39q47 0 99 -34q27 -18 84 -69q55 51 83 69q52 34 100 34zM142 338q-35 0 -60.5 -26.5t-25.5 -62.5
q0 -35 27.5 -59.5t63.5 -24.5q40 0 81 29q16 12 66 59q-45 39 -70 55q-45 30 -82 30zM505 166q36 0 63 23.5t27 59.5q0 35 -25 62t-61 27q-37 0 -82 -29q-23 -15 -70 -56q46 -44 66 -58q41 -29 82 -29z" />
    <glyph glyph-name="quotesinglbase" unicode="&#x201a;" horiz-adv-x="205" 
d="M34 -161q48 65 48 152l-1 11q-27 12 -37.5 26.5t-10.5 43.5q0 27 20.5 49.5t47.5 22.5q42 0 67 -35q22 -31 22 -75q0 -66 -41 -124q-31 -44 -94 -93z" />
    <glyph glyph-name="florin" unicode="&#x192;" horiz-adv-x="520" 
d="M491 0h-477v53h477v-53zM491 333l-477 -221v60l416 191l-416 191v59l477 -220v-60z" />
    <glyph glyph-name="quotedblbase" unicode="&#x201e;" horiz-adv-x="442" 
d="M25 -158q24 40 36 72.5t12 72.5v16q-26 7 -39.5 26.5t-13.5 47.5q0 26 23 48t49 22q43 0 67 -37q21 -33 21 -79q0 -57 -41 -122t-93 -91zM253 -157q49 65 49 152v8q-52 19 -52 71q0 30 19.5 50.5t50.5 20.5q42 0 66 -35q21 -31 21 -75q0 -60 -39.5 -124.5t-92.5 -92.5z
" />
    <glyph glyph-name="ellipsis" unicode="&#x2026;" horiz-adv-x="1000" 
d="M219 0h-104v106h104v-106zM552 0h-104v106h104v-106zM885 0h-104v106h104v-106z" />
    <glyph glyph-name="dagger" unicode="&#x2020;" horiz-adv-x="483" 
d="M160 633q0 32 11 54q15 30 44 30q32 0 45 -32q9 -23 9 -61q0 -45 -9 -98t-23 -98q63 16 70 18q40 9 72 9q27 0 47 -12.5t20 -37.5t-19 -37.5t-45 -12.5q-31 0 -70 9.5t-75 19.5l26.5 -250.5t13.5 -238.5q0 -79 -14.5 -114.5t-45.5 -35.5q-38 0 -52 59q-8 33 -8 89
q0 124 9 232.5t29 259.5q-35 -10 -74.5 -20t-68.5 -10q-27 0 -44 10q-21 13 -21 38t20.5 38t47.5 13q31 0 65 -7t74 -19q-16 54 -25 105.5t-9 99.5z" />
    <glyph glyph-name="daggerdbl" unicode="&#x2021;" horiz-adv-x="779" 
d="M657 3q0 -46 22.5 -62t70.5 -16v-22h-294v22q47 0 69.5 16t22.5 62v665h-343v-665q0 -46 22.5 -62t70.5 -16v-22h-295v22q49 0 69 14q24 17 24 64v601q0 95 -91 95v22h742v-22q-45 0 -67.5 -24.5t-22.5 -70.5v-601z" />
    <glyph glyph-name="circumflex" unicode="&#x2c6;" horiz-adv-x="0" 
d="M-52 670h99l119 -158h-76l-92 86l-93 -86h-73z" />
    <glyph glyph-name="perthousand" unicode="&#x2030;" horiz-adv-x="259" 
d="M52 -103q-23 0 -40 18t-17 41q0 16 13 28t29 12q13 0 30 -15t21 -15q11 0 18.5 27t7.5 67q0 74 -1 111q-5 186 -5 187v220q0 110 12 175q23 127 87 127q25 0 45 -15t20 -40q0 -18 -14.5 -29.5t-33.5 -11.5q-13 0 -27 11t-22 11q-11 0 -14.5 -8.5t-3.5 -21.5
q0 -44 12 -192q6 -74 6 -116l1 -106q0 -139 -8 -230q-15 -170 -54 -211q-9 -10 -28.5 -17t-33.5 -7z" />
    <glyph glyph-name="Scaron" unicode="&#x160;" horiz-adv-x="727" 
d="M296 0h-283v156h15q6 -32 18.5 -45.5t43.5 -13.5h152l-2 26q-98 29 -152 93q-57 67 -57 168q0 128 97 205q90 71 223 71q131 0 220 -72q96 -77 96 -206q0 -100 -54.5 -164.5t-153.5 -93.5l-2 -27h153q30 0 43.5 14t18.5 45h15v-156h-284l16 146q75 32 108 96
q28 55 28 144q0 108 -47 172q-53 72 -158 72t-158 -71q-48 -64 -48 -173q0 -88 28 -144q32 -64 108 -96z" />
    <glyph glyph-name="guilsinglleft" unicode="&#x2039;" horiz-adv-x="333" 
d="M245 108l-157 123v92l157 123v-88l-105 -81l105 -81v-88z" />
    <glyph glyph-name="OE" unicode="&#x152;" horiz-adv-x="845" 
d="M791 706v-94h-266v-214h244v-92h-244v-216h262v-90h-423q-164 0 -266 95q-105 98 -105 261q0 164 115 260q108 90 276 90h407zM426 611l-29 1q-133 0 -211 -64q-84 -69 -84 -200q0 -128 89 -196q80 -61 213 -61h22v520z" />
    <glyph glyph-name="c141" horiz-adv-x="579" 
d="M568 0h-578l307 660zM53 47h396l-187 449z" />
    <glyph glyph-name="c142" horiz-adv-x="468" 
d="M191 0l-187 362l187 353h57l186 -353l-186 -362h-57zM219 663l-157 -301l157 -310l158 310z" />
    <glyph glyph-name="c143" horiz-adv-x="646" 
 />
    <glyph glyph-name="quoteleft" unicode="&#x2018;" horiz-adv-x="222" 
d="M183 690q-48 -73 -48 -159v-4q52 -17 52 -66q0 -30 -21.5 -52.5t-50.5 -22.5q-43 0 -64.5 32.5t-21.5 78.5q0 65 40 123q32 46 94 94z" />
    <glyph glyph-name="quoteright" unicode="&#x2019;" horiz-adv-x="222" 
d="M35 410q23 35 35.5 71t12.5 75v17q-27 13 -37 24q-14 16 -14 42q0 30 20.5 52.5t50.5 22.5q44 0 67 -34q20 -29 20 -75q0 -64 -41 -124q-34 -51 -94 -95z" />
    <glyph glyph-name="quotedblleft" unicode="&#x201c;" horiz-adv-x="442" 
d="M400 690l-28 -52q-20 -42 -20 -92l-1 -18q54 -15 54 -70q0 -29 -21 -51t-50 -22q-44 0 -68 37q-20 31 -20 78q0 57 40.5 121.5t92.5 92.5zM172 689q-25 -27 -37 -68.5t-12 -84.5v-9q51 -14 51 -68q0 -28 -17 -50t-45 -22q-48 0 -71 31.5t-23 80.5q0 66 38 124
q34 52 94 91z" />
    <glyph glyph-name="quotedblright" unicode="&#x201d;" horiz-adv-x="442" 
d="M25 410q24 37 36 70.5t12 73.5v17q-29 14 -41 28.5t-12 44.5q0 26 21 48t47 22q46 0 70 -35q21 -31 21 -80t-24.5 -95t-64.5 -83l-44 -36zM253 409q24 31 36.5 71t12.5 81v10q-52 18 -52 69q0 28 18 50t45 22q48 0 71 -31.5t23 -80.5q0 -64 -39 -123q-35 -53 -93 -93z
" />
    <glyph glyph-name="bullet" unicode="&#x2022;" horiz-adv-x="333" 
d="M297 353q0 -55 -36.5 -92.5t-91.5 -37.5q-54 0 -93.5 38.5t-39.5 91.5t39.5 91.5t93.5 38.5t91 -38t37 -92z" />
    <glyph glyph-name="endash" unicode="&#x2013;" 
d="M16 287h449v-99h-449v99z" />
    <glyph glyph-name="emdash" unicode="&#x2014;" horiz-adv-x="644" 
d="M-32 331h666v-79h-666v79z" />
    <glyph glyph-name="tilde" unicode="&#x2dc;" horiz-adv-x="0" 
d="M-65 663q20 0 90 -35q32 -16 48 -16q14 0 25 17q7 11 14 30l62 -21q-19 -46 -34 -64q-25 -30 -64 -30q-29 0 -77 25t-62 25q-13 0 -26.5 -11.5t-25.5 -38.5l-56 28q25 48 39 63q26 28 67 28z" />
    <glyph glyph-name="trademark" unicode="&#x2122;" horiz-adv-x="843" 
d="M301 646l3 -93l-17 -1v8q0 43 -36 57q-21 8 -73 8v-300q0 -13 10.5 -19.5t37.5 -6.5v-18h-154v18q28 0 38.5 6t10.5 20l-1 300q-54 0 -74 -9q-34 -15 -34 -64l-18 1l3 93h304zM442 646l126 -276l121 276h108v-17h-9q-18 0 -28 -4.5t-10 -19.5v-280q0 -13 10.5 -19.5
t37.5 -6.5v-18h-154v18q28 0 38.5 6t10.5 20v266l-128 -310h-18l-138 295v-251q0 -17 17 -23q9 -3 32 -3v-18h-124v18q28 0 38.5 6t10.5 20v270q0 25 -12 29.5t-26 4.5h-13v17h110z" />
    <glyph glyph-name="guilsinglright" unicode="&#x203a;" horiz-adv-x="333" 
d="M88 196l105 81l-105 81v88l157 -123v-92l-157 -123v88z" />
    <glyph glyph-name="oe" unicode="&#x153;" horiz-adv-x="845" 
d="M589 470q96 0 152 -69q52 -64 52 -162v-18h-317q0 -65 36.5 -104.5t102.5 -39.5q44 0 89 16q31 11 82 39v-92q-45 -25 -89 -38.5t-92 -13.5q-62 0 -107 26.5t-73 81.5q-68 -108 -194 -108q-102 0 -173 72t-71 173q0 99 72 167.5t172 68.5q62 0 108.5 -24.5t85.5 -74.5
q31 48 68 72q43 28 96 28zM238 81q64 0 105 43t41 108q0 64 -45 104.5t-110 40.5q-60 0 -104 -44t-44 -105q0 -63 46 -105t111 -42zM701 287q-11 47 -35 71q-27 27 -73 27q-43 0 -76 -28t-40 -70h224z" />
    <glyph glyph-name="Ydieresis" unicode="&#x178;" horiz-adv-x="583" 
d="M122 895q29 0 49 -20t20 -50q0 -29 -21 -48t-50 -19q-23 0 -44 16.5t-21 39.5v17q0 26 20 45t47 19zM404 895q27 0 46 -21t19 -48q0 -29 -19.5 -48.5t-49.5 -19.5q-28 0 -47.5 21.5t-19.5 50.5q0 28 21.5 46.5t49.5 18.5zM94 706l168 -236l168 236h124l-243 -333v-373
h-101v373l-239 333h123z" />
    <glyph glyph-name="nonbreakingspace" unicode="&#xa0;" horiz-adv-x="262" 
 />
    <glyph glyph-name="exclamdown" unicode="&#xa1;" horiz-adv-x="262" 
d="M119 493l33 -190t17 -180q0 -54 -8 -82q-14 -50 -54 -50q-35 0 -49 43q-9 27 -9 71q0 89 15 195q6 44 33 193h22zM108 714q31 0 50 -21t19 -53q0 -27 -20.5 -48.5t-47.5 -21.5q-29 0 -51.5 20.5t-22.5 49.5q0 31 20.5 52.5t52.5 21.5z" />
    <glyph glyph-name="cent" unicode="&#xa2;" horiz-adv-x="403" 
d="M384 30q-23 -16 -51 -26t-57 -14v-67h-53v66q-94 0 -154 72.5t-60 170.5t60 167.5t154 69.5v70h53v-71q26 -4 63 -17q26 -10 38 -14v-98q-20 16 -46 25.5t-55 13.5v-298q26 4 53.5 16t54.5 29v-95zM223 81v298q-58 -8 -87.5 -53.5t-29.5 -108.5q0 -53 32 -91t85 -45z" />
    <glyph glyph-name="sterling" unicode="&#xa3;" horiz-adv-x="563" 
d="M25 358l92 -1q-31 65 -39.5 96t-8.5 65q0 88 62.5 143.5t150.5 55.5q90 0 146 -55t68 -146l-87 -29q0 61 -33 102.5t-94 41.5q-49 0 -82 -31t-33 -80q0 -30 20 -82q8 -20 35 -80h158v-73h-131q4 -14 6 -33.5t2 -35.5q0 -50 -29 -91l66 -32q44 -20 69 -20q23 0 44 23
q13 14 30 43l74 -40q-18 -47 -58.5 -80.5t-88.5 -33.5q-35 0 -79 21q-98 47 -119 47q-16 0 -29.5 -7.5t-25.5 -21.5q-3 -10 -10 -23t-9 -17l-66 52q20 42 46 66q33 30 74 30q10 19 16 38.5t6 37.5q0 39 -22 77h-121v73z" />
    <glyph glyph-name="section" unicode="&#xa7;" horiz-adv-x="423" 
d="M55 554q0 64 44 113.5t108 49.5q51 0 85 -20q41 -24 41 -72q0 -26 -14.5 -44.5t-40.5 -18.5q-32 0 -40.5 11.5t-8.5 39.5v15q0 7 -9 10.5t-17 3.5q-25 0 -43 -24.5t-18 -51.5q0 -50 58 -117l108 -123q59 -80 59 -157q0 -32 -24 -75q-17 -30 -47 -66q13 -23 20.5 -48
t7.5 -49q0 -65 -44.5 -113.5t-109.5 -48.5q-47 0 -83 21q-43 25 -43 69q0 28 17 48t44 20q19 0 35.5 -12.5t16.5 -31.5q-4 -15 -4 -23q0 -6 6.5 -11t17.5 -5q27 0 43 22.5t16 50.5q0 50 -57.5 116.5l-112.5 129.5q-61 79 -61 143q0 42 22 85q18 34 52 72q-24 46 -24 91z
M252 93q22 29 27.5 43.5t5.5 35.5q0 26 -18 54q-9 13 -37 45l-109 125q-14 -18 -24 -38t-10 -39q0 -51 92 -150z" />
    <glyph glyph-name="dieresis" unicode="&#xa8;" horiz-adv-x="0" 
d="M-105 650q25 0 42.5 -16.5t17.5 -40.5q0 -28 -18 -45t-46 -17q-23 0 -38.5 17.5t-15.5 40.5q0 26 16.5 43.5t41.5 17.5zM45 599q0 18 17.5 34.5t36.5 16.5h12q22 0 37.5 -19.5t15.5 -41.5t-16 -40t-39 -18q-64 0 -64 68z" />
    <glyph glyph-name="copyright" unicode="&#xa9;" horiz-adv-x="748" 
d="M501 497l4 -123h-19q-8 44 -39.5 72.5t-75.5 28.5q-60 0 -97 -54q-33 -48 -33 -111q0 -67 32.5 -109t97.5 -42q41 0 64 10.5t61 41.5l11 -17q-33 -35 -66.5 -52.5t-76.5 -17.5q-83 0 -134 51t-51 134q0 79 51 135t128 56q19 0 53 -9.5t49 -9.5q19 0 23 16h18zM359 648
q137 0 234 -97t97 -234q0 -138 -96.5 -234.5t-234.5 -96.5q-137 0 -234 97t-97 234t97 234t234 97zM359 24q121 0 207 86t86 207t-86 207t-207 86t-207 -86t-86 -207t86 -207t207 -86z" />
    <glyph glyph-name="guillemotleft" unicode="&#xab;" horiz-adv-x="544" 
d="M382 429h112l-171 -202l168 -197h-109l-163 197zM171 429h109l-168 -202l164 -197h-105l-165 197z" />
    <glyph glyph-name="logicalnot" unicode="&#xac;" horiz-adv-x="675" 
d="M-4 276h639v-276h-53v224h-586v52z" />
    <glyph glyph-name="registered" unicode="&#xae;" horiz-adv-x="748" 
d="M358 -19q-137 0 -234 97t-97 234t97 234t234 97t234 -97t97 -234t-97 -234t-234 -97zM357 605q-122 0 -207 -86t-85 -208t86 -207t207 -85t207 86t86 207t-86 207t-208 86zM308 190q0 -16 13 -22t32 -6v-17h-153v17q18 0 29 4q18 7 18 21v277q0 17 -5.5 22.5t-18.5 5.5
h-18v18h164q53 0 87 -18q44 -23 44 -72q0 -41 -28.5 -68.5t-69.5 -27.5l115 -148q12 -14 35 -14v-17h-91l-128 170h-25v-125zM308 337q52 0 82 12q45 18 45 63q0 41 -17.5 56.5t-59.5 19.5l-31 2q-8 0 -14 -6t-6 -14z" />
    <glyph glyph-name="degree" unicode="&#xb0;" horiz-adv-x="262" 
d="M128 370q-59 0 -101.5 41.5t-42.5 101.5t42 102t102 42q59 0 101.5 -42.5t42.5 -101.5t-42 -101t-102 -42zM127 618q-44 0 -74.5 -30.5t-30.5 -74.5q0 -43 31 -74t75 -31t75 30t31 75q0 43 -32 74t-75 31z" />
    <glyph glyph-name="plusminus" unicode="&#xb1;" horiz-adv-x="520" 
d="M223 392v227h53v-227h227v-53h-227v-228h-53v228h-227v53h227zM-4 0v53h507v-53h-507z" />
    <glyph glyph-name="acute" unicode="&#xb4;" horiz-adv-x="0" 
d="M14 670h111l-105 -157h-71z" />
    <glyph glyph-name="mu" unicode="&#xb5;" horiz-adv-x="545" 
d="M126 480v-319q0 -48 22.5 -79t68.5 -31q30 0 62.5 22.5t45.5 50.5v356h82v-369q0 -29 11 -51q15 -29 41 -29q27 0 37 22q8 31 14 45l19 -1q-11 -50 -37 -79q-31 -34 -80 -34q-42 0 -62 28q-14 19 -23 67q-29 -41 -65 -66q-43 -29 -87 -29q-24 0 -42 8q-4 2 -55 39v-22
q0 -27 15.5 -78.5t15.5 -75.5q0 -25 -11 -47t-34 -22t-35 21.5t-12 46.5q0 26 8 58q19 77 19 97v471h82z" />
    <glyph glyph-name="paragraph" unicode="&#xb6;" horiz-adv-x="667" 
d="M539 706v-54h-34v-819h-58v819h-144v-819h-58v486q-74 12 -115.5 62.5t-41.5 125.5q0 96 61.5 147.5t159.5 51.5h230z" />
    <glyph glyph-name="periodcentered" unicode="&#xb7;" horiz-adv-x="164" 
d="M92 359q26 0 45 -20t19 -47q0 -28 -18 -48t-47 -20q-30 0 -49.5 18.5t-19.5 48.5t20 49t50 19z" />
    <glyph glyph-name="periodcentered" unicode="&#x2219;" horiz-adv-x="164" 
d="M92 359q26 0 45 -20t19 -47q0 -28 -18 -48t-47 -20q-30 0 -49.5 18.5t-19.5 48.5t20 49t50 19z" />
    <glyph glyph-name="cedilla" unicode="&#xb8;" horiz-adv-x="0" 
d="M-90 -164q6 -2 17.5 -2t18.5 -1q25 0 49 13t24 37q0 29 -40 40q-14 4 -37 7l37 83h64l-18 -45q39 -9 59 -27.5t20 -55.5q0 -52 -51 -83q-43 -26 -98 -26l-45 3v57z" />
    <glyph glyph-name="guillemotright" unicode="&#xbb;" horiz-adv-x="544" 
d="M171 231l-168 198h107l165 -198l-165 -201h-111zM380 231l-163 198h105l166 -198l-166 -201h-110z" />
    <glyph glyph-name="questiondown" unicode="&#xbf;" horiz-adv-x="322" 
d="M157 511l16 9q47 -44 47 -103q0 -44 -53.5 -124.5t-53.5 -130.5q0 -36 25 -57t63 -21l18 2l-62 -97q-7 0 -19 4q-62 23 -92 55q-36 39 -36 100q0 57 38 124l70 114q39 69 39 125zM157 714q30 0 50.5 -21.5t20.5 -52.5q0 -28 -22 -50t-50 -22t-50.5 21.5t-22.5 49.5
q0 33 20 54t54 21z" />
    <glyph glyph-name="Agrave" unicode="&#xc0;" horiz-adv-x="644" 
d="M276 894l74 -125h-83l-156 125h165zM244 706h86l304 -706h-112l-95 224h-263l-86 -224h-110zM387 316l-98 248l-91 -248h189z" />
    <glyph glyph-name="Aacute" unicode="&#xc1;" horiz-adv-x="644" 
d="M304 894h161l-151 -125h-81zM244 706h86l304 -706h-112l-95 224h-263l-86 -224h-110zM387 316l-98 248l-91 -248h189z" />
    <glyph glyph-name="Acircumflex" unicode="&#xc2;" horiz-adv-x="644" 
d="M202 894h166l90 -123h-90l-82 70l-84 -70h-88zM244 706h86l304 -706h-112l-95 224h-263l-86 -224h-110zM387 316l-98 248l-91 -248h189z" />
    <glyph glyph-name="Atilde" unicode="&#xc3;" horiz-adv-x="644" 
d="M225 898q22 0 52 -15q66 -33 84 -33q14 0 26 16q9 12 15 30l58 -21q-10 -41 -32 -65q-27 -29 -65 -29q-25 0 -57 15q-70 33 -85 33t-29 -18q-10 -13 -18 -33l-57 26q18 44 39 65q28 29 69 29zM244 706h86l304 -706h-112l-95 224h-263l-86 -224h-110zM387 316l-98 248
l-91 -248h189z" />
    <glyph glyph-name="Adieresis" unicode="&#xc4;" horiz-adv-x="644" 
d="M244 706h86l304 -706h-112l-95 224h-263l-86 -224h-110zM387 316l-98 248l-91 -248h189zM149 895q29 0 49 -20t20 -50q0 -29 -20 -48t-49 -19q-27 0 -47 20t-20 46q0 29 19 50t48 21zM431 895q27 0 46 -21t19 -48q0 -30 -20 -49t-50 -19q-29 0 -47.5 21.5t-18.5 50.5
t21 47t50 18z" />
    <glyph glyph-name="Aring" unicode="&#xc5;" horiz-adv-x="644" 
d="M244 706h86l304 -706h-112l-95 224h-263l-86 -224h-110zM387 316l-98 248l-91 -248h189zM290 925q39 0 66.5 -28.5t27.5 -68.5t-28 -68t-69 -28q-39 0 -67 29t-28 68q0 40 29 68t69 28zM290 779q20 0 34 14t14 35q0 22 -14 36t-36 14q-20 0 -35 -15t-15 -35q0 -21 15 -35
t37 -14z" />
    <glyph glyph-name="AE" unicode="&#xc6;" horiz-adv-x="845" 
d="M352 706h425v-95h-277v-207h270v-94h-270v-217h286v-93h-386v310h-166l-173 -310h-117zM400 404v211l-114 -211h114z" />
    <glyph glyph-name="Ccedilla" unicode="&#xc7;" horiz-adv-x="644" 
d="M202 -164q6 -2 17.5 -2t18.5 -1q25 0 47 12q27 15 27 38q0 25 -28 36q-10 4 -49 11l37 83h64l-17 -44q39 -10 56 -27q21 -21 21 -59q0 -51 -51 -81q-44 -26 -98 -26l-45 3v57zM602 552q-64 37 -107 52q-54 19 -117 19q-114 0 -190.5 -78.5t-76.5 -192.5q0 -116 73 -192
t188 -76q61 0 122.5 20t117.5 56l-1 -112q-76 -34 -118 -46q-59 -17 -125 -17q-159 0 -261 105t-102 265q0 153 106.5 259.5t258.5 106.5q71 0 120 -13t112 -48v-108z" />
    <glyph glyph-name="Egrave" unicode="&#xc8;" horiz-adv-x="483" 
d="M215 894l74 -125h-84l-156 125h166zM53 706h380v-94h-278v-214h271v-94h-271v-212h290v-92h-392v706z" />
    <glyph glyph-name="Eacute" unicode="&#xc9;" horiz-adv-x="483" 
d="M238 894h163l-153 -125h-81zM50 706h380v-94h-278v-214h271v-94h-271v-212h290v-92h-392v706z" />
    <glyph glyph-name="Ecircumflex" unicode="&#xca;" horiz-adv-x="483" 
d="M138 894h166l89 -123h-89l-83 70l-83 -70h-89zM50 706h380v-94h-278v-214h271v-94h-271v-212h290v-92h-392v706z" />
    <glyph glyph-name="Edieresis" unicode="&#xcb;" horiz-adv-x="483" 
d="M91 895q29 0 49 -20t20 -50q0 -29 -21 -48t-50 -19q-28 0 -46.5 20.5t-18.5 49.5q0 27 20 47t47 20zM372 895q28 0 46.5 -20.5t18.5 -48.5q0 -30 -19 -49t-49 -19q-27 0 -47 21t-20 49q0 29 20 48t50 19zM55 706h380v-94h-278v-214h271v-94h-271v-212h290v-92h-392v706z
" />
    <glyph glyph-name="Igrave" unicode="&#xcc;" horiz-adv-x="241" 
d="M93 894l74 -125h-84l-155 125h165zM56 706h99v-706h-99v706z" />
    <glyph glyph-name="Iacute" unicode="&#xcd;" horiz-adv-x="241" 
d="M134 894h162l-153 -125h-80zM70 706h99v-706h-99v706z" />
    <glyph glyph-name="Icircumflex" unicode="&#xce;" horiz-adv-x="241" 
d="M20 894h166l89 -123h-89l-83 70l-83 -70h-88zM57 706h99v-706h-99v706z" />
    <glyph glyph-name="Idieresis" unicode="&#xcf;" horiz-adv-x="241" 
d="M-37 895q29 0 49 -20t20 -50q0 -29 -21 -48t-50 -19q-28 0 -46.5 21.5t-18.5 49.5q0 26 20 46t47 20zM244 895q28 0 47 -20t19 -49q0 -30 -20 -49t-50 -19q-27 0 -46.5 20.5t-19.5 49.5t20 48t50 19zM52 706h99v-706h-99v706z" />
    <glyph glyph-name="Ntilde" unicode="&#xd1;" horiz-adv-x="745" 
d="M281 898q25 0 69 -24t67 -24q15 0 27 16q8 11 15 30l58 -22q-11 -40 -33 -64q-26 -29 -64 -29q-25 0 -57 15q-71 33 -85 33q-15 0 -27.5 -16t-19.5 -35l-57 26q17 42 39 65q28 29 68 29zM37 706h82l356 -429q44 -52 58 -71q8 -11 31 -47q0 31 -3 93t-3 93v361h99v-706
h-83l-353 427q-48 59 -90 123q0 -31 2.5 -83.5t2.5 -63.5v-403h-99v706z" />
    <glyph glyph-name="Ograve" unicode="&#xd2;" horiz-adv-x="805" 
d="M355 894l75 -125h-85l-155 125h165zM367 720q163 0 270 -107t107 -269q0 -148 -110 -253t-259 -105q-156 0 -267.5 104t-111.5 258q0 158 106 265t265 107zM376 84q108 0 187 78t79 187q0 115 -77.5 193.5t-191.5 78.5q-113 0 -193.5 -77.5t-80.5 -189.5
q0 -113 81.5 -191.5t195.5 -78.5z" />
    <glyph glyph-name="Oacute" unicode="&#xd3;" horiz-adv-x="805" 
d="M383 894h161l-152 -125h-80zM367 720q163 0 270 -107t107 -269q0 -148 -110 -253t-259 -105q-156 0 -267.5 104t-111.5 258q0 158 106 265t265 107zM376 84q108 0 187 78t79 187q0 115 -77.5 193.5t-191.5 78.5q-113 0 -193.5 -77.5t-80.5 -189.5q0 -113 81.5 -191.5
t195.5 -78.5z" />
    <glyph glyph-name="Ocircumflex" unicode="&#xd4;" horiz-adv-x="805" 
d="M282 894h166l88 -123h-88l-84 70l-82 -70h-89zM367 720q163 0 270 -107t107 -269q0 -148 -110 -253t-259 -105q-156 0 -267.5 104t-111.5 258q0 158 106 265t265 107zM376 84q108 0 187 78t79 187q0 115 -77.5 193.5t-191.5 78.5q-113 0 -193.5 -77.5t-80.5 -189.5
q0 -113 81.5 -191.5t195.5 -78.5z" />
    <glyph glyph-name="Otilde" unicode="&#xd5;" horiz-adv-x="805" 
d="M303 898q25 0 69 -24t66 -24q14 0 26 15t16 31l59 -22q-11 -40 -33 -64q-27 -29 -64 -29q-25 0 -57 15q-71 33 -84 33q-14 0 -24 -10q-3 -3 -24 -41l-57 26q17 43 39 65q28 29 68 29zM367 720q163 0 270 -107t107 -269q0 -148 -110 -253t-259 -105q-156 0 -267.5 104
t-111.5 258q0 158 106 265t265 107zM376 84q108 0 187 78t79 187q0 115 -77.5 193.5t-191.5 78.5q-113 0 -193.5 -77.5t-80.5 -189.5q0 -113 81.5 -191.5t195.5 -78.5z" />
    <glyph glyph-name="Odieresis" unicode="&#xd6;" horiz-adv-x="805" 
d="M367 720q163 0 270 -107t107 -269q0 -148 -110 -253t-259 -105q-156 0 -267.5 104t-111.5 258q0 158 106 265t265 107zM376 84q108 0 187 78t79 187q0 115 -77.5 193.5t-191.5 78.5q-113 0 -193.5 -77.5t-80.5 -189.5q0 -113 81.5 -191.5t195.5 -78.5zM230 895
q29 0 49 -20t20 -50q0 -29 -21 -48t-50 -19t-47 21t-18 50q0 26 20 46t47 20zM512 895q22 0 43.5 -17.5t21.5 -39.5v-26q0 -22 -23 -38t-46 -16q-28 0 -47.5 21.5t-19.5 50.5q0 27 21.5 46t49.5 19z" />
    <glyph glyph-name="Oslash" unicode="&#xd8;" horiz-adv-x="805" 
d="M653 731l43 -37l-67 -78q53 -47 83.5 -117t30.5 -142q0 -161 -104 -266t-266 -105q-74 0 -122 18q-25 9 -108 57l-69 -76l-43 35l68 78l-14 16q-43 52 -65.5 109t-22.5 123q0 160 106.5 267.5t266.5 107.5q65 0 114 -16q40 -13 103 -52zM371 83q119 0 193.5 77.5
t74.5 198.5q0 49 -20.5 99t-54.5 85l-356 -408q44 -28 79.5 -40t83.5 -12zM520 578q-43 24 -74 34t-75 10q-117 0 -194 -78t-77 -196q0 -49 16 -89.5t50 -83.5z" />
    <glyph glyph-name="Ugrave" unicode="&#xd9;" horiz-adv-x="704" 
d="M313 894l75 -125h-84l-155 125h164zM37 706h100v-417q0 -96 45.5 -147.5t140.5 -51.5q107 0 153 58q42 52 42 162v396h100v-442q0 -136 -79.5 -207.5t-217.5 -71.5q-141 0 -212.5 81.5t-71.5 224.5v415z" />
    <glyph glyph-name="Uacute" unicode="&#xda;" horiz-adv-x="704" 
d="M341 894h162l-153 -125h-80zM37 706h100v-417q0 -96 45.5 -147.5t140.5 -51.5q107 0 153 58q42 52 42 162v396h100v-442q0 -136 -79.5 -207.5t-217.5 -71.5q-141 0 -212.5 81.5t-71.5 224.5v415z" />
    <glyph glyph-name="Ucircumflex" unicode="&#xdb;" horiz-adv-x="704" 
d="M240 894h166l89 -123h-89l-83 70l-83 -70h-88zM37 706h100v-417q0 -96 45.5 -147.5t140.5 -51.5q107 0 153 58q42 52 42 162v396h100v-442q0 -136 -79.5 -207.5t-217.5 -71.5q-141 0 -212.5 81.5t-71.5 224.5v415z" />
    <glyph glyph-name="Udieresis" unicode="&#xdc;" horiz-adv-x="704" 
d="M37 706h100v-417q0 -96 45.5 -147.5t140.5 -51.5q107 0 153 58q42 52 42 162v396h100v-442q0 -136 -79.5 -207.5t-217.5 -71.5q-141 0 -212.5 81.5t-71.5 224.5v415zM189 895q29 0 48 -20t19 -50q0 -29 -21 -48t-50 -19q-28 0 -46.5 21.5t-18.5 49.5q0 26 21 46t48 20z
M469 895q27 0 46.5 -20.5t19.5 -48.5q0 -31 -18.5 -47.5t-50.5 -20.5q-31 8 -47 21q-20 16 -20 45q0 31 20 51t50 20z" />
    <glyph glyph-name="germandbls" unicode="&#xdf;" 
d="M39 498q0 105 51 161t155 56q80 0 128.5 -48.5t48.5 -128.5q0 -104 -89 -148q68 -35 91.5 -70t23.5 -108q0 -90 -46 -152q-51 -69 -138 -69q-20 0 -40 3t-32 5v97q11 -5 26.5 -9t28.5 -4q53 0 82 39q26 35 26 91q0 71 -44 104q-39 29 -112 29v81q58 0 90 23q37 27 37 83
q0 43 -23.5 68.5t-66.5 25.5q-65 0 -88 -52q-15 -34 -15 -109v-466h-94v498z" />
    <glyph glyph-name="agrave" unicode="&#xe0;" horiz-adv-x="403" 
d="M161 670l69 -159h-69l-110 159h110zM229 292q0 41 -15 64q-19 28 -58 28q-33 0 -76 -23q-33 -17 -67 -46l1 95q34 27 77 43.5t84 16.5q86 0 121 -64q26 -48 26 -142q0 -22 -2 -72.5t-2 -52.5q0 -21 3 -39t16 -21l47 16v-68q-30 -18 -56 -28.5t-54 -10.5q-13 0 -25.5 11.5
t-18.5 24.5q-31 -16 -51 -24q-30 -12 -55 -12q-61 0 -95 29q-37 32 -37 93q0 65 89 112q49 26 148 54v16zM229 219q-56 -14 -88 -32q-53 -30 -53 -71q0 -22 17 -39t40 -17q20 0 43 10q28 14 41 20v129z" />
    <glyph glyph-name="aacute" unicode="&#xe1;" horiz-adv-x="403" 
d="M191 670h111l-104 -157h-71zM229 292q0 41 -15 64q-19 28 -58 28q-33 0 -76 -23q-33 -17 -67 -46l1 95q34 27 77 43.5t84 16.5q86 0 121 -64q26 -48 26 -142q0 -22 -2 -72.5t-2 -52.5q0 -21 3 -39t16 -21l47 16v-68q-30 -18 -56 -28.5t-54 -10.5q-13 0 -25.5 11.5
t-18.5 24.5q-31 -16 -51 -24q-30 -12 -55 -12q-61 0 -95 29q-37 32 -37 93q0 65 89 112q49 26 148 54v16zM229 219q-56 -14 -88 -32q-53 -30 -53 -71q0 -22 17 -39t40 -17q20 0 43 10q28 14 41 20v129z" />
    <glyph glyph-name="acircumflex" unicode="&#xe2;" horiz-adv-x="403" 
d="M126 670h99l118 -158h-75l-93 86l-93 -86h-72zM229 292q0 41 -15 64q-19 28 -58 28q-33 0 -76 -23q-33 -17 -67 -46l1 95q34 27 77 43.5t84 16.5q86 0 121 -64q26 -48 26 -142q0 -22 -2 -72.5t-2 -52.5q0 -21 3 -39t16 -21l47 16v-68q-30 -18 -56 -28.5t-54 -10.5
q-13 0 -25.5 11.5t-18.5 24.5q-31 -16 -51 -24q-30 -12 -55 -12q-61 0 -95 29q-37 32 -37 93q0 65 89 112q49 26 148 54v16zM229 219q-56 -14 -88 -32q-53 -30 -53 -71q0 -22 17 -39t40 -17q20 0 43 10q28 14 41 20v129z" />
    <glyph glyph-name="atilde" unicode="&#xe3;" horiz-adv-x="403" 
d="M113 663q21 0 90 -35q32 -16 48 -16t29 25q7 16 10 22l61 -22q-21 -48 -34 -64q-24 -29 -63 -29q-26 0 -59 15q-77 35 -81 35q-13 0 -26 -11.5t-25 -38.5l-57 27q21 46 39 64q27 28 68 28zM229 292q0 41 -15 64q-19 28 -58 28q-33 0 -76 -23q-33 -17 -67 -46l1 95
q34 27 77 43.5t84 16.5q86 0 121 -64q26 -48 26 -142q0 -22 -2 -72.5t-2 -52.5q0 -21 3 -39t16 -21l47 16v-68q-30 -18 -56 -28.5t-54 -10.5q-13 0 -25.5 11.5t-18.5 24.5q-31 -16 -51 -24q-30 -12 -55 -12q-61 0 -95 29q-37 32 -37 93q0 65 89 112q49 26 148 54v16z
M229 219q-56 -14 -88 -32q-53 -30 -53 -71q0 -22 17 -39t40 -17q20 0 43 10q28 14 41 20v129z" />
    <glyph glyph-name="adieresis" unicode="&#xe4;" horiz-adv-x="403" 
d="M229 292q0 41 -15 64q-19 28 -58 28q-33 0 -76 -23q-33 -17 -67 -46l1 95q34 27 77 43.5t84 16.5q86 0 121 -64q26 -48 26 -142q0 -22 -2 -72.5t-2 -52.5q0 -21 3 -39t16 -21l47 16v-68q-30 -18 -56 -28.5t-54 -10.5q-13 0 -25.5 11.5t-18.5 24.5q-31 -16 -51 -24
q-30 -12 -55 -12q-61 0 -95 29q-37 32 -37 93q0 65 89 112q49 26 148 54v16zM229 219q-56 -14 -88 -32q-53 -30 -53 -71q0 -22 17 -39t40 -17q20 0 43 10q28 14 41 20v129zM65 650q24 0 41.5 -16.5t17.5 -40.5q0 -27 -17.5 -44.5t-45.5 -17.5q-23 0 -39.5 17.5t-16.5 41.5
q0 26 17 43t43 17zM215 599q0 18 17.5 34.5t36.5 16.5h12q21 0 36.5 -19.5t15.5 -41.5t-16 -40t-37 -18q-31 0 -48 18t-17 50z" />
    <glyph glyph-name="aring" unicode="&#xe5;" horiz-adv-x="403" 
d="M229 292q0 41 -15 64q-19 28 -58 28q-33 0 -76 -23q-33 -17 -67 -46l1 95q34 27 77 43.5t84 16.5q86 0 121 -64q26 -48 26 -142q0 -22 -2 -72.5t-2 -52.5q0 -21 3 -39t16 -21l47 16v-68q-30 -18 -56 -28.5t-54 -10.5q-13 0 -25.5 11.5t-18.5 24.5q-31 -16 -51 -24
q-30 -12 -55 -12q-61 0 -95 29q-37 32 -37 93q0 65 89 112q49 26 148 54v16zM229 219q-56 -14 -88 -32q-53 -30 -53 -71q0 -22 17 -39t40 -17q20 0 43 10q28 14 41 20v129zM166 682q45 0 71.5 -28.5t26.5 -72.5q0 -39 -28.5 -65.5t-68.5 -26.5q-39 0 -67 28t-28 68
q0 38 28.5 67.5t65.5 29.5zM169 535q19 0 34 14t15 35q0 23 -13.5 37.5t-36.5 14.5q-21 0 -35.5 -15.5t-14.5 -35.5t15 -35t36 -15z" />
    <glyph glyph-name="ae" unicode="&#xe6;" horiz-adv-x="664" 
d="M219 298q0 37 -16 60q-19 27 -55 27q-32 0 -77 -23t-71 -49v97q42 29 78 43q43 17 88 17q35 0 65 -15.5t52 -44.5q32 32 64.5 46t76.5 14q98 0 147 -80q41 -67 41 -170l-309 -1q0 -64 35.5 -101.5t101.5 -37.5q39 0 85 16.5t79 41.5v-96q-51 -28 -80 -39q-43 -16 -89 -16
q-38 0 -65 10.5t-87 58.5q-38 -27 -84.5 -47.5t-86.5 -20.5q-52 0 -92.5 32t-40.5 83q0 72 88 120q41 22 152 56v19zM219 217q-62 -18 -90 -33q-54 -30 -54 -71q0 -21 18.5 -37.5t40.5 -16.5q21 0 45 11q9 4 40 24v123zM518 285q-7 45 -32 71.5t-68 26.5q-46 0 -73.5 -25.5
t-38.5 -72.5h212z" />
    <glyph glyph-name="ccedilla" unicode="&#xe7;" horiz-adv-x="403" 
d="M90 -164q6 -2 17 -2t18 -1q25 0 47 12q27 15 27 38q0 25 -28 36q-10 4 -49 11l36 83h65l-17 -45q41 -10 57 -26q21 -20 21 -59q0 -51 -51 -81q-44 -26 -98 -26l-45 3v57zM377 339q-22 17 -60 29t-68 12q-70 0 -106.5 -45t-36.5 -116q0 -63 40 -102t103 -39q36 0 67 12
t68 35v-95q-31 -22 -67 -32t-76 -10q-100 0 -165.5 71.5t-65.5 172.5q0 103 65.5 170.5t168.5 67.5q34 0 68 -10q8 -2 65 -23v-98z" />
    <glyph glyph-name="egrave" unicode="&#xe8;" horiz-adv-x="463" 
d="M191 670l69 -159h-69l-109 159h109zM103 216q0 -63 40.5 -100.5t107.5 -37.5q49 0 101 24q9 4 57 30v-93q-54 -26 -82 -36q-44 -15 -89 -15q-106 0 -169 70.5t-63 178.5q0 92 56.5 162t147.5 70q104 0 159 -77q48 -67 48 -176h-314zM325 285q-10 45 -37 72.5t-71 27.5
q-45 0 -74 -27t-38 -73h220z" />
    <glyph glyph-name="eacute" unicode="&#xe9;" horiz-adv-x="463" 
d="M222 670h109l-103 -157h-71zM103 216q0 -63 40.5 -100.5t107.5 -37.5q49 0 101 24q9 4 57 30v-93q-54 -26 -82 -36q-44 -15 -89 -15q-106 0 -169 70.5t-63 178.5q0 92 56.5 162t147.5 70q104 0 159 -77q48 -67 48 -176h-314zM325 285q-10 45 -37 72.5t-71 27.5
q-45 0 -74 -27t-38 -73h220z" />
    <glyph glyph-name="ecircumflex" unicode="&#xea;" horiz-adv-x="463" 
d="M156 670h99l118 -158h-75l-92 86l-94 -86h-72zM103 216q0 -63 40.5 -100.5t107.5 -37.5q49 0 101 24q9 4 57 30v-93q-54 -26 -82 -36q-44 -15 -89 -15q-106 0 -169 70.5t-63 178.5q0 92 56.5 162t147.5 70q104 0 159 -77q48 -67 48 -176h-314zM325 285q-10 45 -37 72.5
t-71 27.5q-45 0 -74 -27t-38 -73h220z" />
    <glyph glyph-name="edieresis" unicode="&#xeb;" horiz-adv-x="463" 
d="M102 650q25 0 42.5 -15.5t17.5 -41.5q0 -29 -17.5 -45.5t-45.5 -16.5q-23 0 -39.5 17.5t-16.5 41.5t17 42t42 18zM307 651h13q22 0 37.5 -19.5t15.5 -41.5q0 -21 -16.5 -39.5t-37.5 -18.5q-30 0 -48 17t-18 48q0 20 17 37t37 17zM103 217q0 -63 40.5 -100.5t107.5 -37.5
q49 0 101 24q9 4 57 30v-93q-54 -26 -82 -36q-44 -15 -89 -15q-106 0 -169 70.5t-63 178.5q0 92 56.5 162t147.5 70q104 0 159 -77q48 -67 48 -176h-314zM325 286q-10 45 -37 72.5t-71 27.5q-45 0 -74 -27t-38 -73h220z" />
    <glyph glyph-name="igrave" unicode="&#xec;" horiz-adv-x="222" 
d="M85 670l69 -159h-69l-110 159h110zM55 459h95v-459h-95v459z" />
    <glyph glyph-name="iacute" unicode="&#xed;" horiz-adv-x="222" 
d="M120 670h111l-104 -157h-71zM60 459h95v-459h-95v459z" />
    <glyph glyph-name="icircumflex" unicode="&#xee;" horiz-adv-x="222" 
d="M45 670h98l119 -158h-75l-93 86l-93 -86h-72zM50 459h95v-459h-95v459z" />
    <glyph glyph-name="idieresis" unicode="&#xef;" horiz-adv-x="222" 
d="M-67 597q0 22 17.5 37.5t40.5 15.5q29 0 45 -18t16 -47q0 -23 -19.5 -38.5t-44.5 -15.5q-21 0 -38 16t-17 37v13zM208 650q19 0 36 -18t17 -37v-12q0 -19 -17.5 -35.5t-36.5 -16.5q-25 0 -45 16t-20 41q0 30 18 46t48 16zM50 459h95v-459h-95v459z" />
    <glyph glyph-name="ntilde" unicode="&#xf1;" 
d="M166 663q20 0 91 -35q32 -16 48 -16q14 0 25 17q7 10 13 30l61 -22q-12 -40 -34 -64q-27 -29 -64 -29q-25 0 -57 15q-74 35 -82 35q-20 0 -37 -25l-15 -25l-55 27q23 46 39 63q27 29 67 29zM38 459h95v-40q29 23 60 36t65 13q102 0 140 -68q28 -50 28 -162v-238h-94v245
q0 66 -12 93q-19 42 -77 42q-28 0 -59 -15q-25 -12 -51 -34v-331h-95v459z" />
    <glyph glyph-name="ograve" unicode="&#xf2;" horiz-adv-x="544" 
d="M230 670l69 -159h-69l-110 159h110zM254 470q99 0 168.5 -72.5t69.5 -172.5q0 -101 -74 -169t-175 -68q-95 0 -167 72t-72 167q0 106 72 174.5t178 68.5zM246 78q64 0 110 44t46 107q0 62 -45 107t-107 45q-65 0 -111.5 -44.5t-46.5 -109.5q0 -59 47 -104t107 -45z" />
    <glyph glyph-name="oacute" unicode="&#xf3;" horiz-adv-x="544" 
d="M260 670h111l-104 -157h-72zM254 470q99 0 168.5 -72.5t69.5 -172.5q0 -101 -74 -169t-175 -68q-95 0 -167 72t-72 167q0 106 72 174.5t178 68.5zM246 78q64 0 110 44t46 107q0 62 -45 107t-107 45q-65 0 -111.5 -44.5t-46.5 -109.5q0 -59 47 -104t107 -45z" />
    <glyph glyph-name="ocircumflex" unicode="&#xf4;" horiz-adv-x="544" 
d="M194 670h99l119 -158h-76l-92 86l-93 -86h-73zM254 470q99 0 168.5 -72.5t69.5 -172.5q0 -101 -74 -169t-175 -68q-95 0 -167 72t-72 167q0 106 72 174.5t178 68.5zM246 78q64 0 110 44t46 107q0 62 -45 107t-107 45q-65 0 -111.5 -44.5t-46.5 -109.5q0 -59 47 -104
t107 -45z" />
    <glyph glyph-name="otilde" unicode="&#xf5;" horiz-adv-x="544" 
d="M181 663q20 0 90 -35q32 -16 48 -16q14 0 25 17q7 11 14 30l62 -21q-20 -47 -35 -65q-25 -29 -65 -29q-25 0 -57 15q-74 35 -81 35q-13 0 -26 -11.5t-25 -38.5l-56 27q23 46 39 63q27 29 67 29zM253 470q99 0 168.5 -72.5t69.5 -172.5q0 -101 -74 -169t-175 -68
q-95 0 -167 72t-72 167q0 106 72 174.5t178 68.5zM245 78q64 0 110 44t46 107q0 62 -45 107t-107 45q-65 0 -111.5 -44.5t-46.5 -109.5q0 -59 47 -104t107 -45z" />
    <glyph glyph-name="odieresis" unicode="&#xf6;" horiz-adv-x="544" 
d="M254 470q99 0 168.5 -72.5t69.5 -172.5q0 -101 -74 -169t-175 -68q-95 0 -167 72t-72 167q0 106 72 174.5t178 68.5zM246 78q64 0 110 44t46 107q0 62 -45 107t-107 45q-65 0 -111.5 -44.5t-46.5 -109.5q0 -59 47 -104t107 -45zM82 597q0 21 17.5 37.5t39.5 16.5
q25 0 43.5 -15.5t18.5 -39.5q0 -29 -17 -47t-47 -18q-21 0 -38 16t-17 37v13zM357 650q19 0 36 -18t17 -37v-12q0 -21 -18.5 -36.5t-41.5 -15.5t-41 17t-18 40q0 30 18 46t48 16z" />
    <glyph glyph-name="divide" unicode="&#xf7;" horiz-adv-x="520" 
d="M-4 279h505v-52h-505v52zM243 438q22 0 38 -16t16 -38t-16 -38t-38 -16q-21 0 -37 16t-16 38t15 38t38 16zM243 176q22 0 38 -16t16 -38t-16 -38t-38 -16q-21 0 -37 16t-16 38t15 38t38 16z" />
    <glyph glyph-name="oslash" unicode="&#xf8;" horiz-adv-x="544" 
d="M68 67q-32 40 -47 73q-18 40 -18 85q0 102 69.5 173.5t171.5 71.5q43 0 75 -11t73 -36l67 73l34 -31l-67 -73q29 -39 39 -56q26 -45 26 -104q0 -104 -66.5 -174.5t-170.5 -70.5q-45 0 -76.5 11t-76.5 38l-65 -72l-35 30zM254 72q67 0 108.5 44.5t41.5 111.5q0 30 -8 51
t-27 50l-206 -227q42 -30 91 -30zM334 361q-17 14 -39.5 20.5t-47.5 6.5q-64 0 -109.5 -46.5t-45.5 -112.5q0 -51 33 -98z" />
    <glyph glyph-name="ugrave" unicode="&#xf9;" 
d="M215 670l68 -159h-68l-110 159h110zM39 459h94v-233q0 -73 8 -97q17 -50 75 -50q62 0 115 51v329h96v-459h-96l-1 40q-58 -49 -132 -49q-87 0 -127 66q-32 53 -32 147v255z" />
    <glyph glyph-name="uacute" unicode="&#xfa;" 
d="M245 670h110l-103 -157h-71zM39 459h94v-233q0 -73 8 -97q17 -50 75 -50q62 0 115 51v329h96v-459h-96l-1 40q-58 -49 -132 -49q-87 0 -127 66q-32 53 -32 147v255z" />
    <glyph glyph-name="ucircumflex" unicode="&#xfb;" 
d="M180 670h98l119 -158h-75l-93 86l-93 -86h-72zM39 459h94v-233q0 -73 8 -97q17 -50 75 -50q62 0 115 51v329h96v-459h-96l-1 40q-58 -49 -132 -49q-87 0 -127 66q-32 53 -32 147v255z" />
    <glyph glyph-name="udieresis" unicode="&#xfc;" 
d="M39 459h94v-233q0 -73 8 -97q17 -50 75 -50q62 0 115 51v329h96v-459h-96l-1 40q-58 -49 -132 -49q-87 0 -127 66q-32 53 -32 147v255zM68 597q0 21 18.5 37.5t41.5 16.5t41 -15t18 -38v-13q0 -23 -19.5 -38.5t-43.5 -15.5q-20 0 -38 16t-18 37v13zM332 650h13
q18 0 35 -18t17 -37v-12q0 -19 -17.5 -35.5t-36.5 -16.5q-25 0 -45 16t-20 41q0 23 15.5 42.5t38.5 19.5z" />
    <glyph glyph-name="ydieresis" unicode="&#xff;" horiz-adv-x="463" 
d="M99 650q25 0 42.5 -15.5t17.5 -41.5q0 -29 -17.5 -45.5t-45.5 -16.5q-23 0 -39.5 17.5t-16.5 41.5t17 42t42 18zM304 651h13q22 0 37.5 -19.5t15.5 -41.5q0 -21 -16.5 -39.5t-37.5 -18.5q-30 0 -48 17t-18 48q0 20 17 37t37 17zM82 460l137 -304l132 304h105l-322 -717
h-105l139 312l-191 405h105z" />
    <glyph glyph-name="dotlessi" unicode="&#x131;" horiz-adv-x="222" 
d="M54 459h95v-459h-95v459z" />
    <glyph glyph-name="caron" unicode="&#x2c7;" horiz-adv-x="0" 
d="M-93 670l92 -87l95 87h74l-117 -158h-99l-120 158h75z" />
    <glyph glyph-name="fraction" unicode="&#x2215;" horiz-adv-x="121" 
d="M198 727l42 -21l-361 -728l-42 22z" />
    </font>
</defs>
</svg>
